• -Kötelező képet, borítót kirakni a tartalomról, ellenkező esetben törölni fogjuk.
    -Ha megszűnik a képet tartalmazó tárhely ahonnan be lett linkelve, pótlási felszólítást küldünk.
    -A linkeket code tag # közé kell rakni és sima text formában, nem rákattintható linkként.
    -Tilos olyan tárhelyről linkelés ahol a letöltéshez regisztráció szükséges!
    - A filmeket és a videókat a megfelelő helyre és mappába töltsétek fel, (Pl. a Magyart vagy magyar szinkronost, a Magyar XXX-be, stb).

Data.hu Henri Shane magánélete

Ha data.hu-s a feltöltés, válaszd ki ezt hogy ki legyen emelve!
LV
0
 

bubus66

Moderátor
2009.03.09.
859
186
43
Díjak
1
androware.hu
Henri Shane magánélete




General
Complete name : Henri Shane magánélete.mp4
Format : MPEG-4
Format profile : Base Media / Version 2
Codec ID : mp42 (mp42/isom)
File size : 2.06 GiB
Duration : 1 h 56 min
Overall bit rate mode : Variable
Overall bit rate : 2 522 kb/s
Encoded date : UTC 2019-04-24 21:33:17
Tagged date : UTC 2019-04-24 21:34:09
Writing application : mp4creator 1.6.1d


Video
ID : 1
Format : AVC
Format/Info : Advanced Video Codec
Format profile : Baseline@L3
Format settings : 1 Ref Frames
Format settings, CABAC : No
Format settings, Reference : 1 frame
Codec ID : avc1
Codec ID/Info : Advanced Video Coding
Duration : 1 h 56 min
Bit rate : 2 395 kb/s
Width : 720 pixels
Height : 544 pixels
Original height : 540 pixels
Display aspect ratio : 4:3
Frame rate mode : Variable
Frame rate : 29.970 (29970/1000) FPS
Minimum frame rate : 29.960 FPS
Maximum frame rate : 29.970 FPS
Color space : YUV
Chroma subsampling : 4:2:0
Bit depth : 8 bits
Scan type : Progressive
Bits/(Pixel*Frame) : 0.204
Stream size : 1.95 GiB (95%)
Language : English
Encoded date : UTC 2019-04-24 21:33:17
Tagged date : UTC 2019-04-24 21:34:06
Codec configuration box : avcC


Audio
ID : 2
Format : AAC LC
Format/Info : Advanced Audio Codec Low Complexity
Codec ID : mp4a-40-2
Duration : 1 h 56 min
Source duration : 1 h 56 min
Bit rate mode : Variable
Bit rate : 124 kb/s
Maximum bit rate : 154 kb/s
Channel(s) : 2 channels
Channel layout : L R
Sampling rate : 44.1 kHz
Frame rate : 43.066 FPS (1024 SPF)
Compression mode : Lossy
Stream size : 103 MiB (5%)
Source stream size : 103 MiB (5%)
Language : English
Encoded date : UTC 2019-04-24 21:34:06
Tagged date : UTC 2019-04-24 21:34:09


datafree.png

Code:
A tartalom megtekintéséhez szükséges: Bejelentkezés vagy Regisztráció

datapremium.png

Code:
A tartalom megtekintéséhez szükséges: Bejelentkezés vagy Regisztráció
 
Utoljára szerkesztve:
  • Tetszik
Reakciók: doresz2
LV
0
 

bubus66

Moderátor
2009.03.09.
859
186
43
Díjak
1
androware.hu
Szia pótolva. Köszönöm
 
LV
0
 

Márton111

New member
2017.09.24.
9
1
3
46
szia a pótolt CRC-ben hiba. a fizetős datás CRC-vel is próbáltam azzal is hibát jelez,lehet hogy ez az új CRC a másiké?
 
LV
0
 

bubus66

Moderátor
2009.03.09.
859
186
43
Díjak
1
androware.hu
Szia nálam működik. Innen töltöttem le a CRC-vel együtt a 12 fájlt.


1668107151568.png
 
Kedvezményes Data.hu prémium előfizetés itt! Tölts villámgyorsan, korlátok nélkül!