• -Kötelező képet, borítót kirakni a tartalomról, ellenkező esetben törölni fogjuk.
    -Ha megszűnik a képet tartalmazó tárhely ahonnan be lett linkelve, pótlási felszólítást küldünk.
    -A linkeket code tag # közé kell rakni és sima text formában, nem rákattintható linkként.
    -Tilos olyan tárhelyről linkelés ahol a letöltéshez regisztráció szükséges!
    - A filmeket és a videókat a megfelelő helyre és mappába töltsétek fel, (Pl. a Magyart vagy magyar szinkronost, a Magyar XXX-be, stb).

Data.hu Túl a csúcson.1996

Ha data.hu-s a feltöltés, válaszd ki ezt hogy ki legyen emelve!
LV
0
 

bubus66

Moderátor
2009.03.09.
859
186
43
Díjak
1
androware.hu
Túl a csúcson.1996.XXX.VHSRIP.XVID.HUNDUB






General
Complete name : Túl a csúcson - Magyar szinkronos teljes szexfilm.mp4
Format : MPEG-4
Format profile : Base Media
Codec ID : isom (isom/iso2/avc1/mp41)
File size : 666 MiB
Duration : 1 h 37 min
Overall bit rate : 959 kb/s
Writing application : Lavf57.83.100


Video
ID : 1
Format : AVC
Format/Info : Advanced Video Codec
Format profile : High@L3
Format settings : CABAC / 4 Ref Frames
Format settings, CABAC : Yes
Format settings, Reference : 4 frames
Codec ID : avc1
Codec ID/Info : Advanced Video Coding
Duration : 1 h 37 min
Bit rate : 825 kb/s
Width : 852 pixels
Height : 480 pixels
Display aspect ratio : 16:9
Original display aspect rat : 16:9
Frame rate mode : Constant
Frame rate : 25.000 FPS
Color space : YUV
Chroma subsampling : 4:2:0
Bit depth : 8 bits
Scan type : Progressive
Bits/(Pixel*Frame) : 0.081
Stream size : 573 MiB (86%)
Writing library : x264 core 148 r2795 aaa9aa8
Encoding settings : cabac=1 / ref=3 / deblock=1:0:0 / analyse=0x3:0x113 / me=hex / subme=7 / psy=1 / psy_rd=1.00:0.00 / mixed_ref=1 / me_range=16 / chroma_me=1 / trellis=0 / 8x8dct=1 / cqm=0 / deadzone=21,11 / fast_pskip=1 / chroma_qp_offset=-2 / threads=15 / lookahead_threads=2 / sliced_threads=0 / nr=0 / decimate=1 / interlaced=0 / bluray_compat=0 / constrained_intra=0 / bframes=8 / b_pyramid=2 / b_adapt=1 / b_bias=0 / direct=1 / weightb=1 / open_gop=0 / weightp=2 / keyint=50 / keyint_min=5 / scenecut=40 / intra_refresh=0 / rc_lookahead=40 / rc=crf / mbtree=1 / crf=25.0 / qcomp=0.60 / qpmin=0 / qpmax=69 / qpstep=4 / ip_ratio=1.40 / aq=1:1.00
Codec configuration box : avcC


Audio
ID : 2
Format : AAC LC
Format/Info : Advanced Audio Codec Low Complexity
Codec ID : mp4a-40-2
Duration : 1 h 37 min
Bit rate mode : Constant
Bit rate : 128 kb/s
Channel(s) : 2 channels
Channel layout : L R
Sampling rate : 44.1 kHz
Frame rate : 43.066 FPS (1024 SPF)
Compression mode : Lossy
Stream size : 89.2 MiB (13%)
Default : Yes
Alternate group : 1


datafree.png

Code:
A tartalom megtekintéséhez szükséges: Bejelentkezés vagy Regisztráció


datapremium.png

Code:
A tartalom megtekintéséhez szükséges: Bejelentkezés vagy Regisztráció
 
Kedvezményes Data.hu prémium előfizetés itt! Tölts villámgyorsan, korlátok nélkül!