• -Kötelező képet, borítót kirakni a tartalomról, ellenkező esetben törölni fogjuk.
    -Ha megszűnik a képet tartalmazó tárhely ahonnan be lett linkelve, pótlási felszólítást küldünk.
    -A linkeket code tag # közé kell rakni és sima text formában, nem rákattintható linkként.
    -Tilos olyan tárhelyről linkelés ahol a letöltéshez regisztráció szükséges!
    - A filmeket és a videókat a megfelelő helyre és mappába töltsétek fel, (Pl. a Magyart vagy magyar szinkronost, a Magyar XXX-be, stb).

Data.hu Vénusz Hill kalandjai 2004

Ha data.hu-s a feltöltés, válaszd ki ezt hogy ki legyen emelve!
LV
0
 

bubus66

Moderátor
2009.03.09.
859
186
43
Díjak
1
androware.hu
Vénusz Hill kalandjai 2004 XXX.DVDRip-AVI-HUN








Rendezte: Wyler
Főszerepben: Christina Bella, Maria Bellucci
Szereplők: Mya Diamond, Leona Ricchi, Mike Foster, Ninck Lang, Steve, Thomas, Renato
Kategória: pornó (DVD) (VHS) (DRM)
Nemzetiség: magyar
Nyelv: magyar
Kiadó: Fókusz Videó (DVD) (VHS)
Játékidő: kb. 200 perc


Tartalom:
Attila hun király legendás aranyrúdja, nagy kavarodást okoz a ködös Albionban. Az ereklye tulajdonosa varázserővel bír a szebbik nem felett. Egy gazdag, angol üzletember, bármit megtenne, hogy a rúd az övé legyen, de Miss Hill, a gyönyörű ereklye vadász, megakadályozza ebben. Nehézfiúk és nehéz helyzetek ide, vagy oda, szerinte a kincsnek a múzeumban a helye.A film elnyerte a 2005. év Magyar Pornó Oscar - legjobb film díját.


General
Complete name : Vénusz Hill Kalandjai 2004 HUNDUB.mp4
Format : MPEG-4
Format profile : Base Media
Codec ID : isom (isom/iso2/avc1/mp41)
File size : 1.73 GiB
Duration : 1 h 41 min
Overall bit rate : 2 445 kb/s
Writing application : Lavf58.12.100


Video
ID : 1
Format : AVC
Format/Info : Advanced Video Codec
Format profile : Main@L3.1
Format settings : CABAC / 2 Ref Frames
Format settings, CABAC : Yes
Format settings, Reference : 2 frames
Codec ID : avc1
Codec ID/Info : Advanced Video Coding
Duration : 1 h 41 min
Bit rate : 2 313 kb/s
Width : 768 pixels
Height : 576 pixels
Display aspect ratio : 4:3
Frame rate mode : Constant
Frame rate : 25.000 FPS
Color space : YUV
Chroma subsampling : 4:2:0
Bit depth : 8 bits
Scan type : Progressive
Bits/(Pixel*Frame) : 0.209
Stream size : 1.64 GiB (95%)
Codec configuration box : avcC


Audio
ID : 2
Format : MPEG Audio
Format version : Version 1
Format profile : Layer 3
Format settings : Joint stereo / MS Stereo
Codec ID : mp4a-6B
Duration : 1 h 41 min
Duration_LastFrame : -1 ms
Bit rate mode : Constant
Bit rate : 128 kb/s
Channel(s) : 2 channels
Sampling rate : 48.0 kHz
Compression mode : Lossy
Stream size : 92.9 MiB (5%)
Writing library : LAME3.99.5
Default : Yes
Alternate group : 1


dnm62qlfr6pimwlikjn1.png

Code:
A tartalom megtekintéséhez szükséges: Bejelentkezés vagy Regisztráció


uki6lxc7vt.png

Code:
A tartalom megtekintéséhez szükséges: Bejelentkezés vagy Regisztráció


datafree.png

Code:
A tartalom megtekintéséhez szükséges: Bejelentkezés vagy Regisztráció


datapremium.png

Code:
A tartalom megtekintéséhez szükséges: Bejelentkezés vagy Regisztráció
 
Kedvezményes Data.hu prémium előfizetés itt! Tölts villámgyorsan, korlátok nélkül!