[Timezone Detection]
Gyors Regisztráció - Pár másodperc alatt!

Becenév: E-mail cím:
Biztonsági ellenőrzés

Mi a magyar "tenger" neve?


:::: Kereső ::::





A HHW Támogatása!

Köszönjük a sok feltöltő fáradágos munkáját és a moderátorok közreműködését!


Minden támogató külön tagcsopotba kerül és támogatói összegétől függően (2000ft/1hó) VIP letöltést biztosítunk a fórumon található összes data.hu-s linkek direkt, prémium sebességű letöltéséhez!!!


Jelenleg banki átutalással lehet támogatni a HHW-t. Esetleg még a Skrill.com elérhető.
Szeretnénk a reklámmentességet fenntartani, ezért kérjük, akinek lehetősége van támogassa a fórumot!

Banki adatok:
Tulajdonos: Kálmánczi Zoltán
Számlaszám: 16200254-10050525
Külföldi utaláshoz: IBAN számlaszám HU33 1620 0254 1005 0525
0000 0000
A bank SWIFT, illetve BIC kódja: HBWEHUHB
Közleménybe írd be a nick neved a beazonosításhoz.

A VIP letöltések beálltása 24-48 óra alatt történik, leggyakrabban pár órán belül.


Üdv:
HHW Staff

×
Eredmény: 1 - 1 (1) összesen
  1. #1
    Elérhetőség
    Offline
    bubus66 avatara



    Moderátor tagcsoport tagja


    Moderátor
    Csatlakozott
    09-03-09
    Életkor
    52
    Hsz.
    244
    Köszit adott
    8
    69 köszit kapott, 53 hsz.-ban!

    Big Mommy Boobs 7 (2018)

    Big Mommy Boobs 7 (2018) XXX.DVDRip



    Starring: Kendra Lust, Alyssa Lynn, Amber Chase, Blake Morgan, Brandi Love, Bridgette B., Brooke Tyler, Claudia Valentine, Nina Elle, Peta Jensen

    General
    Complete name : Big Mommy Boobs 7.mp4
    Format : MPEG-4
    Format profile : Base Media
    Codec ID : isom (isom/iso2/avc1/mp41)
    File size : 872 MiB
    Duration : 2 h 38 min
    Overall bit rate : 771 kb/s
    Movie name : RARBG - Big.Mommy.Boobs.7.DiSC1.XXX.DVDRip.x264-BTRA
    Writing application : Lavf57.83.100
    Comment : RARBG - Big.Mommy.Boobs.7.DiSC1.XXX.DVDRip.x264-BTRA

    Video
    ID : 1
    Format : AVC
    Format/Info : Advanced Video Codec
    Format profile : High@L3.1
    Format settings : CABAC / 5 Ref Frames
    Format settings, CABAC : Yes
    Format settings, ReFrames : 5 frames
    Codec ID : avc1
    Codec ID/Info : Advanced Video Coding
    Duration : 2 h 38 min
    Bit rate : 640 kb/s
    Width : 720 pixels
    Height : 406 pixels
    Display aspect ratio : 16:9
    Frame rate mode : Constant
    Frame rate : 23.976 (24000/1001) FPS
    Color space : YUV
    Chroma subsampling : 4:2:0
    Bit depth : 8 bits
    Scan type : Progressive
    Bits/(Pixel*Frame) : 0.091
    Stream size : 726 MiB (83%)
    Writing library : x264
    Codec configuration box : avcC

    Audio
    ID : 2
    Format : AAC LC
    Format/Info : Advanced Audio Codec Low Complexity
    Codec ID : mp4a-40-2
    Duration : 2 h 38 min
    Bit rate mode : Constant
    Bit rate : 126 kb/s
    Channel(s) : 2 channels
    Channel layout : L R
    Sampling rate : 48.0 kHz
    Frame rate : 46.875 FPS (1024 SPF)
    Compression mode : Lossy
    Stream size : 142 MiB (16%)
    Default : Yes
    Alternate group : 1


    http://www.xdisk.cz/cs/down............csak tagoknak! Regisztráció itt


    https://mega.nz/#!OZlnEA7R!............csak tagoknak! Regisztráció itt


    https://data.hu/get/1162533............csak tagoknak! Regisztráció itt
    https://data.hu/get/1162533............csak tagoknak! Regisztráció itt
    https://data.hu/get/1162533............csak tagoknak! Regisztráció itt
    https://data.hu/get/1162533............csak tagoknak! Regisztráció itt
    https://data.hu/get/1162532............csak tagoknak! Regisztráció itt
    https://data.hu/get/1162532............csak tagoknak! Regisztráció itt
    Big Mommy Boobs 7 (2018) Kedvezményes Data.hu prémium leltöltés itt! 98Ft/nap


    https://data.hu/get/1162533............csak tagoknak! Regisztráció itt
    Big Mommy Boobs 7 (2018) Kedvezményes Data.hu prémium leltöltés itt! 98Ft/nap


    https://datoporn.co/6poc4v9............csak tagoknak! Regisztráció itt
    Sziréna hangja szólít, megyünk, ha menni kell!!! Mi esküszünk, ha kell, szembeszállunk bármivel.
    A tûz, a víz, a föld minket örökre összeköt.

    A Tûzoltók nem hõsõk, mert a hõsõk mind hallottak. A Tûzoltó olyan ember, mint Te, csak képes oda adni az élet?t a Te életedért

  2. bubus66 hozzászólását megköszönte:

    lamezez (2019-01-12)

Téma információ

Témát böngészõ felhasználók

Jelenleg 1 felhasználó böngészi ezt a témát. (0 regisztrált és 1 vendég)

Hasonló témák

  1. Boobs I Did It Again Vol 2 (2018)
    By unimuni in forum XXX
    Válaszok: 0
    Utolsó hozzászólás: 2018-11-30, 16:28
  2. My Big Boobs 3 (2018)
    By imported_machono in forum XXX
    Válaszok: 0
    Utolsó hozzászólás: 2018-01-16, 08:27
  3. Mommy Got Boobs - Diamond Foxxx
    By Recoil in forum XXX Videók és Rövid filmek
    Válaszok: 0
    Utolsó hozzászólás: 2017-08-31, 12:01

Címkék ehhez a témához

Hozzászólás szabályai

  • Új témákat nem hozhatsz létre
  • Válaszokat nem küldhetsz
  • Fájlokat nem csatolhatsz
  • A hozzászólásaidat nem módosíthatod
  •  
  • BB code is Bekapcsolva
  • Pofik Bekapcsolva
  • Az [IMG] kód Bekapcsolva
  • [VIDEO] code is Bekapcsolva
  • A HTML kód kikapcsolva