All Girl Frenzy (2016) XXX.DVDRip






General
Complete name : C:\Users\bubus66\Downloads\Video\All Girl Frenzy.mp4
Format : MPEG-4
Format profile : Base Media / Version 2
Codec ID : mp42 (isom/iso2/avc1/mp41)
File size : 1.77 GiB
Duration : 2 h 51 min
Overall bit rate mode : Variable
Overall bit rate : 1 474 kb/s
Encoded date : UTC 2016-12-21 06:32:30
Tagged date : UTC 2016-12-21 06:32:30
Writing application : HandBrake 0.10.5 2016021100


Video
ID : 1
Format : AVC
Format/Info : Advanced Video Codec
Format profile : High@L3.1
Format settings, CABAC : Yes
Format settings, ReFrames : 4 frames
Codec ID : avc1
Codec ID/Info : Advanced Video Coding
Duration : 2 h 51 min
Bit rate : 1 280 kb/s
Width : 1 280 pixels
Height : 720 pixels
Display aspect ratio : 16:9
Frame rate mode : Variable
Frame rate : 29.970 (29970/1000) FPS
Minimum frame rate : 10.082 FPS
Maximum frame rate : 29.970 FPS
Color space : YUV
Chroma subsampling : 4:2:0
Bit depth : 8 bits
Scan type : Progressive
Bits/(Pixel*Frame) : 0.046
Stream size : 1.53 GiB (87%)
Writing library : x264
Encoded date : UTC 2016-12-21 06:32:30
Tagged date : UTC 2016-12-21 06:32:30
Color range : Limited
Color primaries : BT.709
Transfer characteristics : BT.709
Matrix coefficients : BT.709


Audio
ID : 2
Format : AAC
Format/Info : Advanced Audio Codec
Format profile : LC
Codec ID : 40
Duration : 2 h 51 min
Bit rate mode : Variable
Bit rate : 192 kb/s
Channel(s) : 2 channels
Channel positions : Front: L R
Sampling rate : 44.1 kHz
Frame rate : 43.066 FPS (1024 spf)
Compression mode : Lossy
Stream size : 236 MiB (13%)
Title : Stereo / Stereo
Default : Yes
Alternate group : 1
Encoded date : UTC 2016-12-21 06:32:30
Tagged date : UTC 2016-12-21 06:32:30




http://data.hu/get/10235783............csak tagoknak!
http://data.hu/get/10235762............csak tagoknak!
http://data.hu/get/10235782............csak tagoknak!
http://data.hu/get/10235761............csak tagoknak!
http://data.hu/get/10235760............csak tagoknak!
http://data.hu/get/10235779............csak tagoknak!
http://data.hu/get/10235759............csak tagoknak!
http://data.hu/get/10235758............csak tagoknak!
http://data.hu/get/10235764............csak tagoknak!
http://data.hu/get/10235780............csak tagoknak!
All Girl Frenzy (2016) XXX.DVDRip Kedvezményes Data.hu prémium leltöltés itt! 98Ft/nap